Monday, August 23, 2010

VIDEO: Go-Go's - The Way You Dance

"The Way You Dance"
(SpinCycleMedia Video Re-creation)

Technical stuff:
Format : MPEG-4
Format profile : Base Media/Version 2
Codec ID : mp42
File size : 15.3 MiB
Duration : 3mn 16s
Overall bit rate : 655 Kbps

Format : AVC
Format profile : Baseline@L3.0
Format settings, CABAC : No
Format settings, ReFrames : 1 frame
Codec ID : avc1
Codec ID/Info : Advanced Video Coding
Bit rate mode : Variable
Bit rate : 539 Kbps
Maximum bit rate : 1 608 Kbps
Width : 480 pixels
Height : 360 pixels
Display aspect ratio : 4:3
Frame rate mode : Constant
Frame rate : 29.917 fps
Resolution : 8 bits
Colorimetry : 4:2:0
Scan type : Progressive
Bits/(Pixel*Frame) : 0.104
Stream size : 12.6 MiB (82%)

Format : AAC
Format version : Version 4
Format profile : LC
Format settings, SBR : No
Codec ID : 40
Bit rate mode : Variable
Bit rate : 113 Kbps
Maximum bit rate : 253 Kbps
Channel(s) : 2 channels
Channel positions : Front: L R
Sampling rate : 44.1 KHz
Stream size : 2.66 MiB (17%)

(Basically, the file is an MP4 and you must have the necessary codecs on your computer to play.)

Recently, I was watching the video for the Go-Go's "Get Up And Go" - you know the one with the cheesy 1982 claymation in it - and had a good laugh at the scenes of the girls dancing with their claymation counterparts.   I enjoyed it so much, that i re-edited the dancing scenes together and looped it, and set it to the song "The Way You Dance" off of the Vacation album.   I get a good laugh at all the girls "dances" but i especially love the strange wonky dance that Gina does as well as the retarded enthusiasm Kathy seems to put into hers.   Those poor girls...looking back on this they must be mortified.  (But we still love you!)

No comments:

Post a Comment